Download | Albert Bassermann | Rangiye Diye Jao (Zee Bangla) - 14th June 2018 Video Watch Online

18+ Red Sparrow 2018 720p BluRay x264 Hindi Audio LLG

DOWNLOAD TORRENT DOWNLOAD DOWNLOAD ANONYMOUS

Posted by LifeLongg •811 on May 17, 2018 in Movies » Drama , verified torrent

Size: 1.26 GB , Seeds: 4 , Peers: 6 ( Updated June 20, 2018 )

* Download via Magnet Link , * To download files you need a Bittorrent Client , * How to download torrents from Bit Torrent Scene?

Scrape History ( seeds + peers )

Internal Files

18+.Red.Sparrow.2018.720p.BluRay.x264.Hindi.Audio.LLG
Sample.mp4   14.16 MB
18+.Red.Sparrow.2018.720p.BluRay.x264.Hindi.Audio.LLG.mp4   1.24 GB

Hash Code

a02c03542c7598baea3d626727d3e2348b0585a0

Description

SCREENSHOT

******************************Thumbnail:**********************

SCREENSHOT

******************************Screenshots:********************

Screenshot 1

Screenshot 2

Screenshot 3

Screenshot 4

Screenshot 5

Screenshot 6

Screenshot 7

Screenshot 8

Screenshot 9

Screenshot 0

**************************************************************

Complete name : 18+.Red.Sparrow.2018.720p.BluRay.x264.Hindi.Audio.LLG.mp4
Format : MPEG-4
Format profile : Base Media
Codec ID : isom (isom/iso2/avc1/mp41)
File size : 1.24 GiB
Duration : 2 h 20 min
Overall bit rate : 1 267 kb/s
Writing application : Lavf57.56.101

Video
ID : 1
Format : AVC
Format/Info : Advanced Video Codec
Format profile : [email protected]
Format settings : CABAC / 4 Ref Frames
Format settings, CABAC : Yes
Format settings, RefFrames : 4 frames
Codec ID : avc1
Codec ID/Info : Advanced Video Coding
Duration : 2 h 20 min
Bit rate : 1 200 kb/s
Width : 1 280 pixels
Height : 536 pixels
Display aspect ratio : 2.40:1
Frame rate mode : Constant
Frame rate : 23.976 (23976/1000) FPS
Color space : YUV
Chroma subsampling : 4:2:0
Bit depth : 8 bits
Scan type : Progressive
Bits/(Pixel*Frame) : 0.073
Stream size : 1.17 GiB (94%)

Audio
ID : 2
Format : AAC
Format/Info : Advanced Audio Codec
Format profile : LC
Codec ID : mp4a-40-2
Duration : 2 h 20 min
Bit rate mode : Constant
Bit rate : 64.4 kb/s
Channel(s) : 2 channels
Channel(s)_Original : 6 channels
Channel positions : Front: L C R, Side: L R, LFE
Sampling rate : 48.0 kHz
Frame rate : 46.875 FPS (1024 SPF)
Compression mode : Lossy
Stream size : 64.5 MiB (5%)
Language : Hindi
Default : Yes
Alternate group : 1
Menus : 3

Trackers

Refresh Leechers : Updated June 20, 2018

1. udp://tracker.openbittorrent.com:80/announce

2. udp://tracker.opentrackr.org:1337/announce

Comments

You must log in to add a comment.

Embed Code

Sharing Widget

Related torrents

FILENAME SIZE SEEDS PEERS ADDED UPD
[i] Red Sparrow (2018) [BluRay] [720p] [YTS AM] 1.17 GB 4391 1137 1 month 6 days
[i] Red Sparrow (2018) [BluRay] [1080p] [YTS AM] 2.24 GB 2976 546 1 month 6 days
[i] Red.Sparrow.2018.HC.HDRip.XviD.AC3-EVO[EtMovies] 1.31 GB 1479 74 2 months 1 day
[i] Red Sparrow (2018) Jennifer Lawrence.720p.H264.italian.English.Ac3-5.1.sub.ita.eng.MIRCrew
posted by robbyrs3 in Movies - Thriller
2.73 GB 175 39 1 month 2 days
[i] downloadhub in Red Sparrow (2018) 720p BluRay x264 [Dual-Audio][Hindi 5 1 - English 5 1] ESubs - Downloadhub
posted by downloadhub in Movies - Drama
1.31 GB 103 54 1 month 3 days
[i] Red Sparrow 2018 DTS ITA ENG 1080p BluRay x264-BLUWORLD mkv
posted by SPEEDY4572 in Movies - Thriller
12.49 GB 64 25 1 month 2 days
[i] Red Sparrow 2018 Bluray H264 Ita Eng Ac3 5 1 Subs RoomCrew mkv
posted by NickTnT in Series - Misc
2.02 GB 42 5 1 month 2 days
[i] Red Sparrow 2018 720p BRRip x264 AAC-ETRG
posted by juggs in Movies - Thriller
986.65 MB 36 11 1 month 3 weeks
[i] Red.Sparrow.2018.BluRay.1080p.HEVC.Multi.AAC.5.1-DTOne 1.56 GB 28 31 4 weeks 2 weeks
[i] Red Sparrow 2018 BRRip XViD AC3-ETRG
posted by juggs in Movies - Thriller
1.42 GB 27 13 1 month 1 week

Top Movies ( auto generated report )

FILENAME SIZE SEEDS PEERS ADDED UPD
[i] Rampage (2018) [WEBRip] [720p] [YTS AM] 924.3 MB 13992 12685 1 day 8 hours
[i] Rampage (2018) [WEBRip] [1080p] [YTS AM] 1.73 GB 11810 9729 1 day 8 hours
[i] Ready Player One (2018) [WEBRip] [1080p] [YTS AM] 2.24 GB 10675 6116 1 day 8 hours
[i] Ready Player One (2018) [WEBRip] [720p] [YTS AM] 1.16 GB 9167 6479 1 day 8 hours
[i] Escape Plan 2 Hades (2018) [BluRay] [720p] [YTS AM] 821.12 MB 6877 4793 3 days 2 days
[i] Escape Plan 2 Hades (2018) [BluRay] [1080p] [YTS AM] 1.52 GB 4347 2178 3 days 2 days
[i] Life of the Party (2018) [WEBRip] [720p] [YTS AM] 886.77 MB 3245 2104 1 day 8 hours
[i] The Death of Superman (2018) [WEBRip] [720p] [YTS AM] 690.36 MB 2300 1288 1 day 8 hours
[i] Beirut (2018) [WEBRip] [720p] [YTS AM] 929.6 MB 2164 1197 3 days 2 days
[i] Life of the Party (2018) [WEBRip] [1080p] [YTS AM] 1.67 GB 2148 1183 1 day 8 hours